485°
ABGELAUFEN
"Soul Kitchen" in HD @NDR

"Soul Kitchen" in HD @NDR

Freebies

"Soul Kitchen" in HD @NDR

Der Fatih Akin Film in HD (1280x720). Etwa 2,5 GB. Dauer ca. 90 Minuten. Der Film ist aus dem Jahr 2009.

"Zino ist vom Pech verfolgt und versucht mit allen Mitteln sein Wilhelmsburger Lokal zu retten. Die Komödie von Fatih Akin bewegt sich im Umfeld eines von der Schließung bedrohten Restaurants." (Quelle: NDR)

IMDb 7,3/10: imdb.com/tit…68/

Wikipedia: de.wikipedia.org/wik…hen

PVG: in HD ab 7,99 €: werstreamt.es/fil…en/

Den Film gab es bereits zweimal als Freebie (in 2013 und 2014), aber nicht in HD: mydealz.de/fre…071 und mydealz.de/fre…911

Frage: Handelt es sich um eine geschnittene TV-Fassung? Die Version in der Mediathek ist 90 Minuten lang (50 fps; kein langer Abspann). Laut Wikipedia dauert der Film 99 Minuten.

24 Kommentare

Super Film. Hat man im Schrank.

Preisfehlerin30. August

Super Film. Hat man im Schrank.


Oder Bald alle auf der Platte

Oder beides.

Super Sache
Danke

Danke.

edit:

Frage: Handelt es sich um eine geschnittene TV-Fassung? Die Version in der Mediathek ist 90 Minuten lang (50 fps; kein langer Abspann). Laut Wikipedia dauert der Film 99 Minuten.


Das könnte evtl. an der PAL-Beschleunigung liegen.
Bearbeitet von: "polygon" 9. September

Hot...

download läuft - muss ich mir dann ja mal reinziehen, wenn ihr den film alles so lobt...^^

wehe , der taugt nix !!! ;-D

Access denied!
Noch jemand mit dem selben Fehler?

die haben aber einen schnellen server, keine 4 min gebraucht für die 2,4gb ^^

Wolferatus

die haben aber einen schnellen server, keine 4 min gebraucht für die 2,4gb ^^



Bei mir auch, Du hast also auch sone 100MBit-Sparleitung?

Hat mir in meiner Sammlung noch gefehlt.

polygon

Danke. :)edit:Das könnte evtl. an der PAL-Beschleunigung liegen.


dafür sind es zuviele Minuten

tobor

dafür sind es zuviele Minuten


Wie sich aus dem Wiki-Artikel hervorgeht, ist die PAL-Beschleunigung für eine Kürzung der Gesamtlauflänge des Films von 4 % verantwortlich, was bei einer Dauer von 99 Min eine Kürzung von etwa 4 Min ergibt. Wenn man noch berücksichtigt, dass die normale Lauflänge des Abspanns ca. 5 Min. beträgt und dieser in der obigen Version gänzlich fehlt, ergibt die Rechnung nach Abzug der aller Kürzungen eine Lauflänge von +/- 90 Min.

Wie ist denn deine Rechnung?

polygon

Wie sich aus dem Wiki-Artikel hervorgeht, ist die PAL-Beschleunigung für eine Kürzung der Gesamtlauflänge des Films von 4 % verantwortlich, was bei einer Dauer von 99 Min eine Kürzung von etwa 4 Min ergibt. Wenn man noch berücksichtigt, dass die normale Lauflänge des Abspanns ca. 5 Min. beträgt und dieser in der obigen Version gänzlich fehlt, ergibt die Rechnung nach Abzug der aller Kürzungen eine Lauflänge von +/- 90 Min.Wie ist denn deine Rechnung?


ich bezog mich auf die reine Veränderung durch die PAL-Beschleunigung - die noch nicht einmal die Hälfte der Differenz erklärt. Da Du es ja auf diese zurückführtest. Klar kann man am Film Vor- und nachspann kürzen. Das hat aber nichts mehr damit zu tun.
Bearbeitet von: "tobor" 9. September

tobor

ich bezog mich auf die reine Veränderung durch die PAL-Beschleunigung - die noch nicht einmal die Hälfte der Differenz erklärt. Da Du es ja auf diese zurückführtest. Klar kann man am Film Vor- und nachspann kürzen. Das hat aber nichts mehr damit zu tun.


Nein, ich führe den Unterschied auf den fehlenden Abspann und die PAL-Beschleunigung als zweite Bedingung zurück. Der TE hat doch bereits eine Kürzung aufgrund der fehlenden Lauflänge durch den Wegfall des Abspanns ausgemacht, was von mir auch nicht bestritten wurde. Bloß reichte dieser Umstand nicht, um die Abwesenheit von 9 Minuten zu erklären. Ich habe darum lediglich auf eine zusätzliche Ursache hingewiesen, die dem TE unbekannt war und nicht anstelle, sondert zusätzlich zu der von ihm genannten hinzutritt.
Bearbeitet von: "polygon" 9. September

danke. es beruhigt schon sehr, wenn auch andere die vermutung hinsichtlich bildrate und abspann teilen. das lässt mich glauben, dass dies keine gekürzte fassung ist.

glauben heißt aber nicht wissen. und wer nichts weiß, muss alles glauben. gibt es überhaupt vor- und abspann bei dem film? vielleicht hat ja jemand den film zuhause im schrank und mag kurz vergleichen.

die .mp4 datei ist auf jeden fall PAL. hier mal die dateiinfos, welche "MediaInfo" ausspuckt:
http://MediaArea.net/MediaInfo

Format : MPEG-4
Format profile : Base Media / Version 2
Codec ID : mp42
File size : 2.38 GiB
Duration : 1h 30mn
Overall bit rate mode : Variable
Overall bit rate : 3 777 Kbps
Encoded date : UTC 2016-08-01 13:48:13
Tagged date : UTC 2016-08-01 13:48:13

Video
ID : 1
Format : AVC
Format/Info : Advanced Video Codec
Format profile : High@L3.2
Format settings, CABAC : Yes
Format settings, ReFrames : 4 frames
Format settings, GOP : M=1, N=50
Codec ID : avc1
Codec ID/Info : Advanced Video Coding
Duration : 1h 30mn
Bit rate mode : Variable
Bit rate : 3 583 Kbps
Maximum bit rate : 5 376 Kbps
Width : 1 280 pixels
Height : 720 pixels
Display aspect ratio : 16:9
Frame rate mode : Constant
Frame rate : 50.000 fps
Standard : PAL
Color space : YUV
Chroma subsampling : 4:2:0
Bit depth : 8 bits
Scan type : Progressive
Bits/(Pixel*Frame) : 0.078
Stream size : 2.26 GiB (95%)
Language : English
Encoded date : UTC 2016-08-01 13:48:13
Tagged date : UTC 2016-08-01 13:48:13
Color primaries : BT.709
Transfer characteristics : BT.709
Matrix coefficients : BT.709

Audio
ID : 2
Format : AAC
Format/Info : Advanced Audio Codec
Format profile : LC
Codec ID : 40
Duration : 1h 30mn
Bit rate mode : Variable
Bit rate : 192 Kbps
Maximum bit rate : 354 Kbps
Channel(s) : 2 channels
Channel positions : Front: L R
Sampling rate : 48.0 KHz
Compression mode : Lossy
Stream size : 122 MiB (5%)
Language : German
Encoded date : UTC 2016-08-01 13:48:13
Tagged date : UTC 2016-08-01 13:48:13

Bearbeitet von: "justthisguy" 31. August

ofdb.de/vie…419

Der Film ist FSK 12. Weshalb also sollte er geschnitten sein? 90:09 ohne Abspann.

Wie kann ich den auf dem iPad runterlaufen?

Kack film

justthisguy

gibt es überhaupt vor- und abspann bei dem film?


Wie bereits von mir erwähnt, besitzt der Film einen etwa fünfminütigen Abspann.
http://i.imgur.com/oX1lSv0.png
http://i.imgur.com/yWJ5WdA.png
http://i.imgur.com/0FeLH3l.png

Dein Kommentar
Avatar
@
    Text