Abgelaufen

Video läuft ca. 2x so schnell ab, Ton normal

16
eingestellt am 25. Apr
Wahrscheinlich das falsche Forum hierfür, aber möglicherweise kennt einer die Ursache. Ich habe ein Video heruntergeladen (legal ) und das Video läuft ungefähr 2x so schnell ab. Der Ton hingegen ist normal. Ich habe das Problem schon gegoogelt und keinen Grund / keine Lösung auf die Schnelle finden können. Liegt es vielleicht an den FPS? Wie behebe ich das am besten? (Möchte das Video am Fernseher gucken)
Zusätzliche Info
Diverses
16 Kommentare
Nicht so viele Infos auf einmal bitte. Wenn der Ton normal abspielt, ist es wohl eher ein Problem mit dem Quellmaterial. Da kannste dann neu rendern und das Video von der Abspieldauer halbieren, dann sollte es wieder halbwegs "normal" abspielen, wird jedoch einen Qualitätsverlust nach sich ziehen.

Alternativ kann man auch die Audiospur auf 2.00 codieren, diese dann in den Container reinklatschen und das Video auf 0,5x Geschwindigkeit abspielen. Geht halt auch mit 'nem extremen Qualitätsverlust der Tonspur einher, weswegen ich zu Variante 1 tendieren würde.
Verfasser
Mariovor 9 m

Nicht so viele Infos auf einmal bitte. Wenn der Ton normal abspielt, ist …Nicht so viele Infos auf einmal bitte. Wenn der Ton normal abspielt, ist es wohl eher ein Problem mit dem Quellmaterial. Da kannste dann neu rendern und das Video von der Abspieldauer halbieren, dann sollte es wieder halbwegs "normal" abspielen, wird jedoch einen Qualitätsverlust nach sich ziehen. Alternativ kann man auch die Audiospur auf 2.00 codieren, diese dann in den Container reinklatschen und das Video auf 0,5x Geschwindigkeit abspielen. Geht halt auch mit 'nem extremen Qualitätsverlust der Tonspur einher, weswegen ich zu Variante 1 tendieren würde.


Sorry, hatte mein Notebook gerade nicht an

Infos zum Video:

General
Format : MPEG-4
Format profile : Base Media
Codec ID : isom (isom/avc1)
File size : 243 MiB
Duration : 58 min 42 s
Overall bit rate mode : Variable
Overall bit rate : 579 kb/s
Encoded date : UTC 2018-03-12 10:30:14
Tagged date : UTC 2018-03-12 10:30:14

Video
ID : 1
Format : AVC
Format/Info : Advanced Video Codec
Format profile : High@L3
Format settings : CABAC / 4 Ref Frames
Format settings, CABAC : Yes
Format settings, RefFrames : 4 frames
Codec ID : avc1
Codec ID/Info : Advanced Video Coding
Duration : 29 min 21 s
Bit rate : 799 kb/s
Maximum bit rate : 2 639 kb/s
Width : 720 pixels
Height : 576 pixels
Display aspect ratio : 16:9
Frame rate mode : Constant
Frame rate : 50.000 FPS
Original frame rate : 25.000 FPS
Standard : PAL
Color space : YUV
Chroma subsampling : 4:2:0
Bit depth : 8 bits
Scan type : Progressive
Bits/(Pixel*Frame) : 0.039
Stream size : 168 MiB (69%)
Title : avi.h264@GPAC0.6.1-revrelease
Encoded date : UTC 2018-03-12 10:30:14
Tagged date : UTC 2018-03-12 10:31:10
Color range : Limited
Color primaries : BT.601 PAL
Transfer characteristics : BT.470 System B/G
Matrix coefficients : BT.470 System B/G

Audio
ID : 2
Format : AAC
Format/Info : Advanced Audio Codec
Format profile : LC
Codec ID : mp4a-40-2
Duration : 58 min 42 s
Bit rate mode : Variable
Bit rate : 175 kb/s
Maximum bit rate : 202 kb/s
Channel(s) : 2 channels
Channel positions : Front: L R
Sampling rate : 48.0 kHz
Frame rate : 46.875 FPS (1024 SPF)
Compression mode : Lossy
Stream size : 73.6 MiB (30%)
Title : avi.aac@GPAC0.6.1-revrelease
Encoded date : UTC 2018-03-12 10:31:03
Tagged date : UTC 2018-03-12 10:31:10

Und danke schon mal für die Tipps
Frame rate mode : Constant
Frame rate : 50.000 FPS
Original frame rate : 25.000 FPS


Das wir dann wohl der Fehler sein. Die Framerate ist schlicht einfach mal verdoppelt worden. Und dann vermutlich nicht interpoliert worden, sondern einfach mit den Frames der nächsten Sekunde befüllt worden.

29 min 21 s * 2 = 58:42 passt dann auch 1:1 zum Audio.
Und dir ist echt nicht eingefallen zu erwähnen welchen Player du benutzt? Oder was du schon versucht hast?

Ich hab übrigens auch ein PC Problem. Wenn ich spielen will geht es nicht. Was kann das sein?
Verfasser
Mariovor 4 m

Frame rate mode : ConstantFrame rate : 50.000 FPSOriginal frame rate : …Frame rate mode : ConstantFrame rate : 50.000 FPSOriginal frame rate : 25.000 FPSDas wir dann wohl der Fehler sein. Die Framerate ist schlicht einfach mal verdoppelt worden. Und dann vermutlich nicht interpoliert worden, sondern einfach mit den Frames der nächsten Sekunde befüllt worden.29 min 21 s * 2 = 58:42 passt dann auch 1:1 zum Audio.


Wie behebt man das am schnellsten? Muss das Video dafür verändert werden, oder geht es auch ohne Qualitätsverlust / schneller?

Danke

chunkymonkeyvor 4 m

Und dir ist echt nicht eingefallen zu erwähnen welchen Player du benutzt? …Und dir ist echt nicht eingefallen zu erwähnen welchen Player du benutzt? Oder was du schon versucht hast? Ich hab übrigens auch ein PC Problem. Wenn ich spielen will geht es nicht. Was kann das sein?


Ich habe es auf meinem Notebook, meinem Fernseher, meinem Blu-ray-Player und meinem Handy ausprobiert. Daher kann ich davon ausgehen, dass es nicht am Player liegt.
mark-svor 1 m

Wie behebt man das am schnellsten? Muss das Video dafür verändert werden, o …Wie behebt man das am schnellsten? Muss das Video dafür verändert werden, oder geht es auch ohne Qualitätsverlust / schneller?Danke Ich habe es auf meinem Notebook, meinem Fernseher, meinem Blu-ray-Player und meinem Handy ausprobiert. Daher kann ich davon ausgehen, dass es nicht am Player liegt.



askubuntu.com/que…ing
Verfasser
Mariovor 2 m

https://askubuntu.com/questions/370692/how-to-change-the-framerate-of-a-video-without-reencoding


Vielen Dank, anscheinend sogar für Windows Das hat mir den Abend gerettet.^^
mark-svor 32 s

Vielen Dank, anscheinend sogar für Windows Das hat mir den Abend …Vielen Dank, anscheinend sogar für Windows Das hat mir den Abend gerettet.^^


Kein Ding, wenn's denn klappt.
Verfasser
Mariovor 11 m

Kein Ding, wenn's denn klappt.


Ich habe mkvtoolnix verwendet (weil man das Programm nicht installieren brauchte) und einfach unter FPS 25p eingegeben. Läuft wie geschmiert.
mark-svor 41 s

Ich habe mkvtoolnix verwendet (weil man das Programm nicht installieren …Ich habe mkvtoolnix verwendet (weil man das Programm nicht installieren brauchte) und einfach unter FPS 25p eingegeben. Läuft wie geschmiert.


Na dann, gönn' dir
Teilst du den Sexfilm deiner Freundin jetzt mit uns oder nicht?
Produkttestervor 1 h, 43 m

Teilst du den Sexfilm deiner Freundin jetzt mit uns oder nicht?


Wer nimmt denn 2018 noch Filme mit 720*576 und 25 FPS auf? Mark ist schon so lange dabei, der muss mindestens eine Yi 4k dafür haben

Vielleicht ist das Video ja von seinen Eltern, vor seiner Zeit
Verfasser
Blulubvor 8 m

Wer nimmt denn 2018 noch Filme mit 720*576 und 25 FPS auf? Mark ist schon …Wer nimmt denn 2018 noch Filme mit 720*576 und 25 FPS auf? Mark ist schon so lange dabei, der muss mindestens eine Yi 4k dafür haben Vielleicht ist das Video ja von seinen Eltern, vor seiner Zeit



Produkttestervor 1 h, 52 m

Teilst du den Sexfilm deiner Freundin jetzt mit uns oder nicht?


Um das Rätselraten hier zu beenden :

Es geht um die Serie "Gunpowder". (Ich habe mir eine Aufnahme aus dem Fernsehen heruntergeladen, also ist das nicht illegal.)
mark-svor 6 m

Um das Rätselraten hier zu beenden :Es geht um die Serie "Gunpowder". …Um das Rätselraten hier zu beenden :Es geht um die Serie "Gunpowder". (Ich habe mir eine Aufnahme aus dem Fernsehen heruntergeladen, also ist das nicht illegal.)


Wir wissen noch immer nicht in welcher Auflösung du deine eigenen "Serien" (in Spielfilmlänge?) drehst
mark-svor 10 h, 6 m

Um das Rätselraten hier zu beenden :Es geht um die Serie "Gunpowder". …Um das Rätselraten hier zu beenden :Es geht um die Serie "Gunpowder". (Ich habe mir eine Aufnahme aus dem Fernsehen heruntergeladen, also ist das nicht illegal.)


17193207-Rnaot.jpg
Verfasser
Blulubvor 11 h, 56 m

Wir wissen noch immer nicht in welcher Auflösung du deine eigenen "Serien" …Wir wissen noch immer nicht in welcher Auflösung du deine eigenen "Serien" (in Spielfilmlänge?) drehst



kaitzovor 1 h, 56 m

[Bild]


Dein Kommentar
Avatar
@
    Text

    Top Diskussionen

    Top-Händler